&title=[宴] KING is BACK!! [13+?]
&wholebpm=176
&artist=A-One
&demo_seek=45
&lv_7=逆
&des_7=お前がBACKするんかーーーい!!
&inote_7=
(176){1},
{4}3/4,3$/4$/7?-4[4:1]/8?-3[4:1],,,
{4}5/6,5$/6$/1?-6[4:1]/2?-5[4:1],,,
{4}3/4,3$/4$/7?-4[4:1]/8?-3[4:1],,,
{4}5/6,5$/6$/1?-6[4:1]/2?-5[4:1],,,
{4}7/8,7$/8$/4?-7[4:1]/3?-8[4:1],,,
{4}1/2,1$/2$/6?-1[4:1]/5?-2[4:1],,,
{4}7/8,7$/8$/4?-7[4:1]/3?-8[4:1],,,
{4}1$/8$/4?qq1[8:3]/5?pp8[8:3],,,2b/7b,
{8}5/6,7,8,1$`6?<1[8:1],,6/1$`6?>1[4:1],,6,
{16},,7,,1/8,,1/2,1/2,,7/8,7h[4:1]/8h[4:1],,,,,,
{8}3/4,2,1,8$`3?>8[8:1],,3/8$`5?<8[8:1],,5,
{16}1,2,3,8,7,6,2,3,4,7,6,5,1b,,,,
{8}5/6,7,8,1$`6?<1[8:1],,6/1$`6?>1[4:1],,6,
{16},,7,,1/8,,1/2,1/2,,7/8,7h[4:1]/8h[4:1],,,,,,
{8}3/4,2,1,8$`3?>8[8:1],,3/8$`5?<8[8:1],,5,
{16}1,2,3,8,7,6,2,3,4,7,6,5,1,2,3,4,
{8}1$`6?-1[8:1],3,6,3,1$`6?-1[8:1],3,6,3,
{8}7/8$`3?-8[8:1],6,3,6,8$`3?-8[8:1],6,3,6,
{4}2b$/6b$/1?-6[8:1]/5?-2[8:1],1b/5b,3b/7b,,
{16}2,4,3,5,4,6,5,7,1/8,,2/7,,,,,,
{8}8$`3?-8[8:1],6,3,6,8$`3?-8[8:1],6,3,6,
{8}2/1$`6?-1[8:1],3,6,3,1$`6?-1[8:1],3,6,3,
{4}3b$/7b$/8?-3[8:1]/4?-7[8:1],4b/8b,2b/6b,,
{16}7,5,6,4,5,3,4,2,1/8,,2b/7b,,,,4,5,
{8}3b/6b,,3,2/5,1,3/8,7,1/6,
{8}5$`8?<5[8:1],4$`1?>4[8:1],8,1,,1b$/4?q1[8:1]/8b$/5?p8[8:1],,4b/5b,
{8},3/7,2$`6?-2[8:1],6$`2?-6[8:1],2,8,,4/5,
{8},2/6,7$`3?-7[8:1],3$`7?-3[8:1],7,1,2,3/6,
{16}1b/8b,,7,8,7,1,7,,2/6,,1,8,1,7,1,,
{16}2/6,,8,1,8,2,8,,3/7,,2,1,2,8,2,,
{16}3/7,,2,6,3,7,4,8,5,1,4,8,3,7,2,6,
{8}1/5,2/6,3/7,4/8,,,1$/2$/5?-1[8:1]*-2[8:1],3,
{8}5b,,7$/8$/4?-7[8:1]*-8[8:1],6,4b,,1$/2$/5?-1[8:1]*-2[8:1],3,
{8}5b,,7$/8$/4?-7[8:1]*-8[8:1],6,4b,,1$/2$/5?-1[8:1]*-2[8:1],3,
{8}5b,,7$/8$/4?-7[8:1]*-8[8:1],6,4b,,5/6,8,
{8}3/4,1,5/6,8,3/4,1,7$/8$/3?-7[8:1]*-8[8:1],6,
{8}3b,,1$/2$/6?-1[8:1]*-2[8:1],3,6b,,7$/8$/3?-7[8:1]*-8[8:1],6,
{8}3b,,1$/2$/6?-1[8:1]*-2[8:1],3,6b,,7$/8$/3?-7[8:1]*-8[8:1],6,
{8}3b,,1$/2$/6?-1[8:1]*-2[8:1],3,6b,,7/8,1/6,
{32}7,,8,,6,,1,,5,,2,,4h[4:1],,,,,,,,1,,,,1,2,3,4,5,6,7,8,
{8}1b$`5?-1[8:1],6,5,7,8$`4?-8[8:1],3,4,2,
{8}1$`6?-1[8:1],5,6,7,8$`3?-8[8:1],4,3,2,
{8}1/6h[4:1],,4h[8:1],3h[8:1],2h[8:1],1h[8:1],8h[8:1],7,
{32}2,,8,,4,,6,,1,,7,,3,,5,,2,,8,,4,,6,,1,2,3,4,5,6,7,8,
{8}1b$`5?-1[8:1],6,5,7,8$`4?-8[8:1],3,4,2,
{8}1$`6?-1[8:1],5,6,7,8$`3?-8[8:1],4,3,2,
{16}1,5,3,7,2,6,4,8,3,7,1,5,4,8,2,6,
{4}1b$/8b$/4?>1[8:1]/5?<8[8:1],4b/5b,2b/6b,4/5,
{8}3,2,1,7/8$`4?-8[8:1],,4/8$`5?>8[4:1],,5,
{16},,2,,1/8,,6,6,,3,3h[4:1],,,,,,
{8}6,7,8,2/1$`5?-1[8:1],,5/1$`4?>1[8:1],,4,
{16}8,7,6,1,2,3,7,6,5,2,3,4,8b,,,,
{8}3/4,2,1,7/8$`4?-8[8:1],,4/8$`5?>8[4:1],,5,
{16},,2,,1/8,,6,6,,3,3h[4:1],,,,,,
{8}5/6,7,8,2/1$`5?-1[8:1],,5/1$`4?>1[8:1],,4,
{16}8,7,6,1,2,3,7,6,5,2,3,4,8,7,6,5,
{4}3/4,3/4,2/5,,
{8}5/6,,5/6,,4/7,5$/6$/1?-5[8:1]*-6[8:1],,1b,
{8},2/8,3$`7?-3[8:1],7$`3?-7[8:1],3,1,,4/5,
{8},1/7,6$`2?-6[8:1],2$`6?-2[8:1],6,8,1,2/7,
{16}4b/5b,,2,1,2,8,3,,4/7,,8,1,8,2,7,,
{16}3/6,,1,8,1,7,2,,3/6,,7,8,7,1,6,,
{16}2/5,,7,3,6,2,5,1,4,8,5,1,6,2,7,3,
{8}4/8,3/7,2/6,1/5,,,7$/8$/4?-7[8:1]/3?-8[8:1],1/6,
{8}3b/4b,,1$/2$/6?-1[8:1]/5?-2[8:1],3/8,5b/6b,,7$/8$/4?-7[8:1]/3?-8[8:1],1/6,
{8}3b/4b,,1$/2$/6?-1[8:1]/5?-2[8:1],3/8,5b/6b,,7$/8$/4?-7[8:1]/3?-8[8:1],1/6,
{8}3b/4b,,1$/2$/6?-1[8:1]/5?-2[8:1],3/8,5b/6b,,3/5,1,
{8}4/6,8,3/5,1,4/6,8,1$/2$/5?-1[8:1]/6?-2[8:1],3/8,
{8}5b/6b,,7$/8$/3?-7[8:1]/4?-8[8:1],1/6,3b/4b,,1$/2$/5?-1[8:1]/6?-2[8:1],3/8,
{8}5b/6b,,7$/8$/3?-7[8:1]/4?-8[8:1],1/6,3b/4b,,1$/2$/5?-1[8:1]/6?-2[8:1],3/8,
{8}5b/6b,,7$/8$/3?-7[8:1]/4?-8[8:1],1/6,3b/4b,,1/2,3/8,
{32}2,,1,,3,,8,,4,,7,,5h[4:1],,,,,,,,8,,,,8,7,6,5,4,3,2,1,
{8}8b$`4?-8[8:1],6,4,2,1$`5?-1[8:1],3,5,7,
{8}8$`3?-8[8:1],6,3,2,1$`6?-1[8:1],3,6,7,
{8}3h[4:1]/8,,5h[8:1],6h[8:1],7h[8:1],8h[8:1],1h[8:1],2,
{32}7,,1,,5,,3,,8,,2,,6,,4,,7,,1,,5,,3,,8,7,6,5,4,3,2,1,
{8}8b$`4?-8[8:1],6,4,2,1$`5?-1[8:1],3,5,7,
{8}8$`3?-8[8:1],6,3,2,1$`6?-1[8:1],3,6,7,
{16}8,4,6,2,7,3,5,1,6,2,8,4,5,1,7,3,
{4}1b$/4?>1[8:1]/8b$/5?<8[8:1],4b/5b,2b/7b,4/5,
{8}5/7,2/4,7/8,1$`6?<1[8:1],,6/1$`6?>1[4:1],,6,
{16},,7,,1/8,,3/4,3/4,,5/6,5h[4:1]/6h[4:1],,,,,,
{8}2/4,5/7,1/2,8$`3?>8[8:1],,3/8$`5?<8[8:1],,5,
{16}1,2,3,4/8,7,6,1/5,2,3,4/8,7,6,1b/5b,,,,
{8}5/7,2/4,7/8,2/1$`5?-1[8:1],,5/1$`4?<1[4:1],,4,
{16},,7,,1/8,,3/4,3/4,,5/6,5h[4:1]/6h[4:1],,,,,,
{8}2/4,5/7,1/2,7/8$`4?-8[8:1],,4/8$`5?<8[8:1],,5,
{16}1b,2,3,4/8b,7,6,1b/5,2,3,4/8b,7,6,1b/5,2,3,4,
{4}1b$/6?-1[8:1]/5b$/2?-5[8:1],2b/6b,4b/8b,1b$/6?<5[1:3]/2b$/5?>6[1:3],
{1},
{1},
{1},
{1},
{1},
{1},
E
